osu file format v14

[General]
AudioFilename: a.mp3
AudioLeadIn: 1500
PreviewTime: 139779
Countdown: 0
SampleSet: Soft
StackLeniency: 0.7
Mode: 0
LetterboxInBreaks: 0
WidescreenStoryboard: 0

[Editor]
Bookmarks: 27700,139779
DistanceSpacing: 1.2
BeatDivisor: 4
GridSize: 4
TimelineZoom: 1

[Metadata]
Title:Ichiru no Nozomi yo, Ano Tsuki e Hibike
TitleUnicode:一縷の望みよ、あの月へ響け
Artist:Rohi
ArtistUnicode:ろひ
Creator:pieguy1372
Version:Insane
Source:
Tags:okiyava Kagamine Rin Flask RLC vocaloid
BeatmapID:255705
BeatmapSetID:95148

[Difficulty]
HPDrainRate:8
CircleSize:4
OverallDifficulty:7
ApproachRate:8
SliderMultiplier:1.6
SliderTickRate:1

[Events]
//Background and Video events
Video,0,"QQ.avi",0,0
0,0,"QQ.jpg",0,0
//Break Periods
2,43114,54164
2,112542,125306
//Storyboard Layer 0 (Background)
//Storyboard Layer 1 (Fail)
//Storyboard Layer 2 (Pass)
//Storyboard Layer 3 (Foreground)
//Storyboard Sound Samples
//Background Colour Transformations
3,100,163,162,255

[TimingPoints]
1772,428.571428571429,4,2,1,70,1,0
15486,-100,4,2,1,80,0,0
27486,-100,4,2,1,60,0,0
27593,-100,4,2,1,80,0,0
27914,-100,4,2,1,70,0,0
28022,-100,4,2,1,80,0,0
29200,-100,4,2,1,90,0,0
41200,-100,4,2,1,70,0,0
41307,-100,4,2,1,90,0,0
41629,-100,4,2,1,80,0,0
41736,-100,4,2,1,90,0,0
70343,-100,4,2,1,90,0,0
84057,-100,4,2,1,60,0,0
84914,428.571428571429,4,2,2,100,1,0
126056,-133.333333333333,4,2,1,70,0,0
126699,-133.333333333333,4,2,1,60,0,0
126806,-133.333333333333,4,2,1,70,0,0
127556,-133.333333333333,4,2,1,60,0,0
127664,-133.333333333333,4,2,1,70,0,0
128414,-133.333333333333,4,2,1,60,0,0
128521,-133.333333333333,4,2,1,70,0,0
129271,-133.333333333333,4,2,1,60,0,0
129378,-133.333333333333,4,2,1,70,0,0
130128,-133.333333333333,4,2,1,60,0,0
130235,-133.333333333333,4,2,1,70,0,0
130985,-133.333333333333,4,2,1,60,0,0
131092,-133.333333333333,4,2,1,70,0,0
131842,-133.333333333333,4,2,1,60,0,0
131949,-133.333333333333,4,2,1,70,0,0
132699,-133.333333333333,4,2,1,60,0,0
132914,-133.333333333333,4,2,1,80,0,0
133556,-133.333333333333,4,2,1,70,0,0
133664,-133.333333333333,4,2,1,80,0,0
134414,-133.333333333333,4,2,1,70,0,0
134521,-133.333333333333,4,2,1,80,0,0
135271,-133.333333333333,4,2,1,70,0,0
135378,-133.333333333333,4,2,1,80,0,0
136128,-133.333333333333,4,2,1,70,0,0
136235,-133.333333333333,4,2,1,85,0,0
137092,-133.333333333333,4,2,1,90,0,0
138056,-100,4,2,1,95,0,0
138806,-100,4,2,1,100,0,0
139771,-100,4,2,1,100,0,1
151771,-100,4,2,1,80,0,1
151878,-100,4,2,1,100,0,1
152199,-100,4,2,1,90,0,1
152306,-100,4,2,1,100,0,1
153378,-100,4,2,1,100,0,0
153485,-100,4,2,1,100,0,1
165485,-100,4,2,1,80,0,1
165592,-100,4,2,1,100,0,1
165914,-100,4,2,1,90,0,1
166021,-100,4,2,1,100,0,1
167199,-100,4,2,1,100,0,0

[Colours]
Combo1 : 255,255,128
Combo2 : 32,32,128
Combo3 : 0,128,64
Combo4 : 128,128,255

[HitObjects]
100,76,1772,1,2,0:0:0:0:
148,140,1986,1,2,0:0:0:0:
296,76,2414,1,2,0:0:0:0:
296,76,2522,1,2,0:0:0:0:
296,76,2629,2,0,B|335:100|381:96|415:72,1,120,2|0,0:0|0:0,0:0:0:0:
452,56,3057,2,0,L|460:148,1,80,2|0,0:0|0:0,0:0:0:0:
452,260,3486,6,0,B|395:252|343:281|316:327,1,160,2|0,0:0|0:0,0:0:0:0:
152,248,4129,1,2,0:0:0:0:
152,248,4236,1,2,0:0:0:0:
152,248,4343,2,0,B|130:211|131:167|152:133,2,120,2|2|2,0:0|0:0|0:0,0:0:0:0:
312,196,5200,5,2,0:0:0:0:
312,196,5307,1,2,0:0:0:0:
312,196,5414,2,0,L|228:180,1,80,2|0,0:0|0:0,0:0:0:0:
164,224,5843,1,2,0:0:0:0:
164,224,5950,1,2,0:0:0:0:
164,224,6057,2,0,B|122:216|80:224,1,80,2|0,0:0|0:0,0:0:0:0:
48,240,6379,2,0,B|62:214|64:185|56:160,1,80,2|0,0:0|0:0,0:0:0:0:
52,124,6700,1,2,0:0:0:0:
148,72,6914,6,0,B|187:93|229:101|269:96,1,120,2|0,0:0|0:0,0:0:0:0:
304,92,7343,2,0,L|296:180,1,80,,,0:0:0:0:
324,272,7772,1,2,0:0:0:0:
363,271,7879,1,2,0:0:0:0:
400,258,7986,1,2,0:0:0:0:
433,236,8093,1,2,0:0:0:0:
452,200,8200,2,0,L|460:112,1,80,2|0,0:0|0:0,0:0:0:0:
332,52,8629,5,2,0:0:0:0:
292,120,8843,2,0,L|284:208,1,80,2|0,0:0|0:0,0:0:0:0:
212,144,9272,2,0,L|216:96,1,40,2|2,0:0|0:0,0:0:0:0:
220,64,9486,2,0,B|173:42|122:51|85:80,1,120,2|0,0:0|0:0,0:0:0:0:
84,100,9914,2,0,L|72:184,1,80,2|0,0:0|0:0,0:0:0:0:
64,336,10343,6,0,B|88:292|137:271|183:280,1,120,2|0,0:0|0:0,0:0:0:0:
200,260,10772,2,0,L|208:172,1,80,,,0:0:0:0:
268,68,11200,2,0,B|307:85|349:83|384:68,2,120,2|2|2,0:0|0:0|0:0,0:0:0:0:
312,184,12057,5,2,0:0:0:0:
312,184,12164,1,2,0:0:0:0:
312,184,12272,2,0,L|400:188,1,80,2|0,0:0|0:0,0:0:0:0:
312,332,12700,1,2,0:0:0:0:
312,332,12807,1,2,0:0:0:0:
312,332,12914,2,0,L|436:284|436:284,1,120,2|2,0:0|0:0,0:0:0:0:
448,256,13343,2,0,L|452:164,1,80,0|2,0:0|0:0,0:0:0:0:
416,104,13772,5,6,0:0:0:0:
391,72,13879,1,2,0:0:0:0:
353,57,13986,1,2,0:0:0:0:
313,56,14093,1,2,0:0:0:0:
274,66,14200,1,6,0:0:0:0:
100,124,14414,1,2,0:0:0:0:
308,140,14629,1,6,0:0:0:0:
108,204,14843,1,10,0:0:0:0:
344,224,15057,2,0,L|264:220,1,80,10|0,0:0|0:0,0:0:0:0:
72,284,15486,5,2,0:0:0:0:
108,204,15700,1,0,0:0:0:0:
196,204,15914,2,0,L|232:288,1,80,0|0,0:0|0:0,0:0:0:0:
144,344,16343,5,2,0:0:0:0:
156,256,16557,1,0,0:0:0:0:
236,220,16772,2,0,L|312:276,1,80,0|0,0:0|0:0,0:0:0:0:
236,360,17200,5,2,0:0:0:0:
212,276,17414,1,0,0:0:0:0:
272,212,17629,2,0,L|356:236,1,80,0|0,0:0|0:0,0:0:0:0:
324,360,18057,2,0,L|196:324,1,120,2|0,0:0|0:0,0:0:0:0:
168,308,18486,2,0,L|124:308,3,40,0|0|0|0,0:0|0:0|0:0|0:0,0:0:0:0:
88,328,18914,5,2,0:0:0:0:
104,188,19129,1,0,0:0:0:0:
168,308,19343,1,0,0:0:0:0:
44,252,19557,1,0,0:0:0:0:
24,124,19772,2,0,B|76:99|134:104|180:132,1,160,2|0,0:0|0:0,0:0:0:0:
180,224,20414,1,0,0:0:0:0:
264,168,20629,6,0,B|299:189|340:192,1,80,2|0,0:0|0:0,0:0:0:0:
468,120,21057,2,0,B|433:99|392:96,1,80,0|0,0:0|0:0,0:0:0:0:
276,44,21486,2,0,L|268:132,1,80,2|0,0:0|0:0,0:0:0:0:
264,168,21807,1,0,0:0:0:0:
260,212,21914,2,0,L|256:252,3,40,0|0|0|0,0:0|0:0|0:0|0:0,0:0:0:0:
252,300,22343,5,4,0:0:0:0:
208,224,22557,1,0,0:0:0:0:
120,244,22772,2,0,L|104:324,1,80,8|0,0:0|0:0,0:0:0:0:
312,232,23200,5,2,0:0:0:0:
232,196,23414,1,0,0:0:0:0:
164,252,23629,2,0,L|164:340,1,80,8|0,0:0|0:0,0:0:0:0:
308,320,24057,5,2,0:0:0:0:
392,288,24272,1,0,0:0:0:0:
400,200,24486,1,8,0:0:0:0:
332,144,24700,1,0,0:0:0:0:
168,132,24914,2,0,L|112:124,1,40,2|0,0:0|0:0,0:0:0:0:
128,258,25236,2,0,L|168:252,1,40,8|8,0:0|0:0,0:0:0:0:
128,258,25557,6,0,B|168:276|212:276,1,80,0|2,0:0|0:0,0:0:0:0:
348,304,25986,1,0,0:0:0:0:
252,196,26200,1,8,0:0:0:0:
268,340,26414,1,0,0:0:0:0:
340,212,26629,6,0,B|347:180|345:148|336:119,1,80,2|0,0:0|0:0,0:0:0:0:
168,252,27057,2,0,B|161:284|163:316|172:345,1,80,8|0,0:0|0:0,0:0:0:0:
340,212,27486,5,4,0:0:0:0:
144,112,27700,1,0,0:0:0:0:
344,296,27914,1,12,0:0:0:0:
116,192,28129,1,0,0:0:0:0:
328,376,28343,2,0,L|248:340,1,80,12|0,0:0|0:0,0:0:0:0:
220,316,28664,1,0,0:0:0:0:
188,284,28772,2,0,L|180:236,3,40,,,0:0:0:0:
176,200,29200,5,4,0:0:0:0:
256,144,29414,1,2,0:0:0:0:
216,56,29629,1,8,0:0:0:0:
120,56,29843,1,2,0:0:0:0:
92,148,30057,2,0,B|81:178|82:209|92:236,1,80,0|2,0:0|0:0,0:0:0:0:
256,144,30486,2,0,B|267:114|266:83|256:56,1,80,8|2,0:0|0:0,0:0:0:0:
176,200,30914,5,0,0:0:0:0:
92,148,31129,1,2,0:0:0:0:
20,208,31343,1,8,0:0:0:0:
60,296,31557,1,2,0:0:0:0:
156,288,31772,2,0,B|205:298|253:284|288:256,1,120,2|8,0:0|0:0,0:0:0:0:
312,244,32200,2,2,L|352:240,3,40,10|0|2|0,0:0|0:0|0:0|0:0,0:0:0:0:
424,228,32629,5,0,0:0:0:0:
344,64,32843,1,2,0:0:0:0:
312,244,33057,1,8,0:0:0:0:
448,120,33272,1,2,0:0:0:0:
268,144,33486,2,0,B|222:126|173:129|132:148,1,120,2|0,0:0|0:0,0:0:0:0:
104,160,33914,1,10,0:0:0:0:
52,252,34129,1,2,0:0:0:0:
112,336,34343,6,0,B|144:346|176:346|206:340,1,80,0|2,0:0|0:0,0:0:0:0:
376,316,34772,2,0,B|335:320|296:309,1,80,8|2,0:0|0:0,0:0:0:0:
148,244,35200,2,0,B|181:240|210:226|233:207,1,80,0|2,0:0|0:0,0:0:0:0:
260,184,35522,1,0,0:0:0:0:
268,136,35629,2,0,L|272:80,3,40,10|0|2|0,0:0|0:0|0:0|0:0,0:0:0:0:
264,20,36057,5,0,0:0:0:0:
216,180,36272,1,2,0:0:0:0:
348,88,36486,1,8,0:0:0:0:
180,84,36700,1,2,0:0:0:0:
320,184,36914,2,0,B|364:189|404:172,1,80,0|2,0:0|0:0,0:0:0:0:
232,100,37343,2,0,B|188:95|148:112,1,80,8|2,0:0|0:0,0:0:0:0:
40,236,37772,5,0,0:0:0:0:
196,268,37986,1,2,0:0:0:0:
56,144,38200,1,8,0:0:0:0:
104,304,38414,1,2,0:0:0:0:
196,180,38629,2,0,B|241:167|285:170|325:184,1,120,2|0,0:0|0:0,0:0:0:0:
360,200,39057,2,0,L|368:240,3,40,10|0|2|0,0:0|0:0|0:0|0:0,0:0:0:0:
376,324,39486,5,0,0:0:0:0:
280,332,39700,1,2,0:0:0:0:
240,244,39914,1,8,0:0:0:0:
316,180,40129,1,2,0:0:0:0:
396,232,40343,6,0,L|320:292,1,80,0|2,0:0|0:0,0:0:0:0:
108,272,40772,2,0,L|184:212,1,80,8|2,0:0|0:0,0:0:0:0:
340,104,41200,5,4,0:0:0:0:
256,320,41414,1,2,0:0:0:0:
172,104,41629,1,12,0:0:0:0:
396,232,41843,1,2,0:0:0:0:
116,232,42057,2,0,L|200:196,1,80,12|2,0:0|0:0,0:0:0:0:
236,184,42379,1,0,0:0:0:0:
284,192,42486,2,0,L|332:208,3,40,,,0:0:0:0:
396,232,42914,5,4,0:0:0:0:
256,84,54914,5,6,0:0:0:0:
384,200,55129,1,2,0:0:0:0:
408,240,55236,1,2,0:0:0:0:
384,280,55343,1,6,0:0:0:0:
128,188,55557,1,2,0:0:0:0:
104,148,55664,1,2,0:0:0:0:
128,108,55772,1,6,0:0:0:0:
364,124,55986,5,10,0:0:0:0:
124,284,56200,2,0,L|208:228,1,80,10|0,0:0|0:0,0:0:0:0:
364,124,56629,5,4,0:0:0:0:
256,304,56843,2,0,L|172:360,1,80,2|0,0:0|0:0,0:0:0:0:
60,192,57272,2,0,L|144:136,1,80,2|0,0:0|0:0,0:0:0:0:
296,148,57700,1,2,0:0:0:0:
296,148,57807,1,0,0:0:0:0:
296,148,57914,1,0,0:0:0:0:
212,196,58129,1,2,0:0:0:0:
212,100,58343,1,0,0:0:0:0:
296,240,58557,6,0,B|303:271|301:302|292:329,1,80,2|0,0:0|0:0,0:0:0:0:
136,328,58986,1,2,0:0:0:0:
136,328,59093,1,0,0:0:0:0:
136,328,59200,2,0,B|114:288|116:241|136:204,1,120,0|0,0:0|0:0,0:0:0:0:
168,188,59629,2,0,L|240:140,1,80,2|2,0:0|0:0,0:0:0:0:
256,284,60057,5,0,0:0:0:0:
52,172,60272,2,0,L|136:116,1,80,2|0,0:0|0:0,0:0:0:0:
256,284,60700,2,0,L|172:340,1,80,2|0,0:0|0:0,0:0:0:0:
52,172,61129,1,2,0:0:0:0:
52,172,61236,1,0,0:0:0:0:
52,172,61343,2,0,L|140:172,1,80,0|2,0:0|0:0,0:0:0:0:
344,132,61772,5,4,0:0:0:0:
160,96,61986,1,2,0:0:0:0:
356,208,62200,1,4,0:0:0:0:
132,172,62414,1,2,0:0:0:0:
368,292,62629,1,4,0:0:0:0:
116,252,62843,1,8,0:0:0:0:
116,252,62950,1,0,0:0:0:0:
116,252,63057,1,8,0:0:0:0:
116,252,63486,5,4,0:0:0:0:
228,120,63700,2,0,L|320:156,1,80,2|0,0:0|0:0,0:0:0:0:
236,356,64129,2,0,L|144:320,1,80,2|0,0:0|0:0,0:0:0:0:
68,172,64557,1,2,0:0:0:0:
68,172,64664,1,0,0:0:0:0:
68,172,64772,1,0,0:0:0:0:
164,172,64986,1,2,0:0:0:0:
216,252,65200,1,0,0:0:0:0:
68,172,65414,6,0,L|144:124,1,80,2|0,0:0|0:0,0:0:0:0:
304,312,65843,2,0,L|228:360,1,80,2|0,0:0|0:0,0:0:0:0:
88,252,66272,1,2,0:0:0:0:
88,252,66379,1,0,0:0:0:0:
88,252,66486,2,0,B|149:228|214:232|268:256,1,160,0|0,0:0|0:0,0:0:0:0:
464,224,67129,5,2,0:0:0:0:
372,252,67343,1,0,0:0:0:0:
312,180,67557,1,2,0:0:0:0:
376,108,67772,2,0,B|410:109|440:121|465:141,1,80,0|2,0:0|0:0,0:0:0:0:
388,332,68200,2,0,B|354:331|324:319|299:299,1,80,0|2,0:0|0:0,0:0:0:0:
140,132,68629,6,0,L|100:112,2,40,12|8|8,0:0|0:0|0:0,0:0:0:0:
372,252,69057,2,0,L|412:272,2,40,12|8|8,0:0|0:0|0:0,0:0:0:0:
120,296,69486,1,12,0:0:0:0:
130,249,69593,1,8,0:0:0:0:
161,212,69700,1,8,0:0:0:0:
207,198,69807,1,8,0:0:0:0:
256,192,69914,2,8,L|256:120,2,53.3333333333333,,,0:0:0:0:
276,72,70343,6,0,B|320:55|368:69|395:103,1,106.666666666667,4|0,0:0|0:0,0:0:0:0:
477,137,70772,2,0,L|424:140,2,53.3333333333333,2|0|0,0:0|0:0|0:0,0:0:0:0:
360,172,71200,2,0,B|317:173|281:199|264:235,1,106.666666666667,2|2,0:0|0:0,0:0:0:0:
336,256,71629,2,0,B|388:252|433:287|444:335,1,106.666666666667,2|0,0:0|0:0,0:0:0:0:
312,336,72057,6,0,B|278:310|234:310|201:332,1,106.666666666667,4|0,0:0|0:0,0:0:0:0:
140,304,72486,2,0,L|86:300,2,53.3333333333333,2|0|0,0:0|0:0|0:0,0:0:0:0:
296,256,72914,2,0,B|269:229|231:220|197:230,1,106.666666666667,6|2,0:0|0:0,0:0:0:0:
68,212,73343,2,0,B|87:179|121:162|155:163,1,106.666666666667,2|0,0:0|0:0,0:0:0:0:
176,48,73772,6,0,B|201:84|245:97|283:84,1,106.666666666667,4|0,0:0|0:0,0:0:0:0:
356,37,74200,2,0,L|340:88,2,53.3333333333333,2|0|0,0:0|0:0|0:0,0:0:0:0:
368,156,74629,2,0,B|410:169|453:151|476:117,1,106.666666666667,2|2,0:0|0:0,0:0:0:0:
300,188,75057,2,0,B|283:224|285:263|300:296,1,106.666666666667,2|0,0:0|0:0,0:0:0:0:
440,304,75486,6,0,L|440:232,2,53.3333333333333,4|0|0,0:0|0:0|0:0,0:0:0:0:
376,332,75914,2,0,B|339:316|298:323|268:344,1,106.666666666667,2|0,0:0|0:0,0:0:0:0:
140,300,76343,2,0,L|140:372,2,53.3333333333333,6|0|2,0:0|0:0|0:0,0:0:0:0:
72,280,76772,2,0,B|109:296|150:289|180:268,1,106.666666666667,2|0,0:0|0:0,0:0:0:0:
400,252,77200,6,0,B|362:267|321:263|288:244,1,106.666666666667,4|0,0:0|0:0,0:0:0:0:
256,176,77629,2,0,L|256:116,2,53.3333333333333,2|0|0,0:0|0:0|0:0,0:0:0:0:
215,248,78057,2,0,B|181:265|144:265|112:252,1,106.666666666667,2|2,0:0|0:0,0:0:0:0:
108,152,78486,1,2,0:0:0:0:
132,88,78629,1,2,0:0:0:0:
200,76,78772,1,2,0:0:0:0:
256,124,78914,6,0,L|232:180,2,53.3333333333333,4|0|0,0:0|0:0|0:0,0:0:0:0:
332,120,79343,2,0,B|371:115|404:97|429:71,1,106.666666666667,2|0,0:0|0:0,0:0:0:0:
474,169,79772,2,0,B|436:174|404:191|379:217,1,106.666666666667,6|2,0:0|0:0,0:0:0:0:
352,344,80200,1,2,0:0:0:0:
420,328,80343,1,2,0:0:0:0:
432,260,80486,1,2,0:0:0:0:
380,216,80629,6,0,B|336:207|293:212|255:229,1,106.666666666667,4|0,0:0|0:0,0:0:0:0:
228,272,81057,2,0,L|228:332,2,53.3333333333333,2|0|0,0:0|0:0|0:0,0:0:0:0:
160,296,81486,2,0,B|116:305|73:300|35:283,1,106.666666666667,2|2,0:0|0:0,0:0:0:0:
56,180,81914,1,2,0:0:0:0:
104,128,82057,1,2,0:0:0:0:
172,136,82200,1,2,0:0:0:0:
216,192,82343,6,0,B|254:209|298:192|316:157,1,106.666666666667,4|0,0:0|0:0,0:0:0:0:
228,88,82772,2,0,L|196:40,2,53.3333333333333,2|0|0,0:0|0:0|0:0,0:0:0:0:
144,208,83200,2,0,B|107:216|83:251|88:287,1,106.666666666667,4|2,0:0|0:0,0:0:0:0:
200,340,83629,2,0,B|237:332|261:297|256:261,1,106.666666666667,2|0,0:0|0:0,0:0:0:0:
272,136,84057,5,2,0:0:0:0:
292,108,84200,1,2,0:0:0:0:
272,80,84343,1,2,0:0:0:0:
240,80,84486,1,2,0:0:0:0:
220,108,84629,1,2,0:0:0:0:
240,136,84772,1,2,0:0:0:0:
256,324,84914,5,6,0:0:0:0:
312,196,85199,1,0,0:0:0:0:
380,316,85485,1,0,0:0:0:0:
256,252,85771,2,0,L|216:240,2,26.6666666666667,2|0|0,0:0|0:0|0:0,0:0:0:0:
324,268,86056,2,0,B|345:256|359:237|364:216,1,53.3333333333333,0|2,0:0|0:0,0:0:0:0:
332,164,86342,2,0,B|329:144|332:124|340:107,1,53.3333333333333,,,0:0:0:0:
440,28,86628,6,0,B|400:47|358:50|319:40,1,106.666666666667,2|0,0:0|0:0,0:0:0:0:
280,88,87056,2,0,B|242:82|206:88|174:104,1,106.666666666667,2|0,0:0|0:0,0:0:0:0:
108,48,87485,2,0,L|96:160,1,106.666666666667,2|0,0:0|0:0,0:0:0:0:
88,224,87914,2,0,L|84:268,3,40,2|0|0|0,0:0|0:0|0:0|0:0,0:0:0:0:
80,336,88342,5,6,0:0:0:0:
172,192,88628,1,0,0:0:0:0:
340,248,88914,1,0,0:0:0:0:
160,276,89199,2,0,L|120:272,2,26.6666666666667,2|0|0,0:0|0:0|0:0,0:0:0:0:
224,308,89485,2,0,B|243:314|263:313|281:308,1,53.3333333333333,0|2,0:0|0:0,0:0:0:0:
336,272,89771,2,0,B|355:266|375:267|393:272,1,53.3333333333333,,,0:0:0:0:
468,348,90056,6,0,B|432:361|395:358|364:344,1,106.666666666667,2|0,0:0|0:0,0:0:0:0:
248,204,90485,2,0,B|283:188|320:188|352:200,1,106.666666666667,2|0,0:0|0:0,0:0:0:0:
224,308,90914,2,0,B|188:321|151:318|120:304,1,106.666666666667,2|0,0:0|0:0,0:0:0:0:
40,216,91342,2,0,L|84:216,3,40,2|0|0|0,0:0|0:0|0:0|0:0,0:0:0:0:
148,192,91771,5,6,0:0:0:0:
176,56,92056,1,0,0:0:0:0:
256,172,92342,1,0,0:0:0:0:
124,120,92628,2,0,L|88:112,2,26.6666666666667,2|0|0,0:0|0:0|0:0,0:0:0:0:
192,132,92914,2,0,B|226:130|256:116,1,53.3333333333333,0|2,0:0|0:0,0:0:0:0:
276,60,93199,2,0,B|310:62|340:76,1,53.3333333333333,,,0:0:0:0:
408,152,93485,6,0,B|449:137|469:92|456:53,1,106.666666666667,2|0,0:0|0:0,0:0:0:0:
328,72,93914,2,0,L|328:204,1,106.666666666667,2|0,0:0|0:0,0:0:0:0:
440,268,94342,2,0,B|401:249|357:254|324:276,1,120,2|0,0:0|0:0,0:0:0:0:
260,312,94771,2,0,L|216:304,3,40,2|0|0|0,0:0|0:0|0:0|0:0,0:0:0:0:
92,172,95199,5,6,0:0:0:0:
116,348,95485,1,0,0:0:0:0:
200,192,95771,1,0,0:0:0:0:
40,268,96056,2,0,L|4:288,2,26.6666666666667,2|0|0,0:0|0:0|0:0,0:0:0:0:
108,272,96342,2,2,B|140:262|164:240,1,53.3333333333333,0|2,0:0|0:0,0:0:0:0:
200,192,96628,1,0,0:0:0:0:
248,140,96771,1,0,0:0:0:0:
316,156,96914,1,6,0:0:0:0:
256,192,96985,12,0,98199,0:0:0:0:
148,292,98628,6,0,L|108:308,2,26.6666666666667,6|0|0,0:0|0:0|0:0,0:0:0:0:
216,272,98914,2,0,B|229:254|234:232|232:212,1,53.3333333333333,0|2,0:0|0:0,0:0:0:0:
172,184,99199,2,0,B|172:165|178:148|188:134,1,53.3333333333333,,,0:0:0:0:
236,80,99485,1,2,0:0:0:0:
336,232,99771,1,0,0:0:0:0:
464,100,100056,1,0,0:0:0:0:
304,32,100342,6,0,B|296:73|305:112|324:144,1,106.666666666667,2|0,0:0|0:0,0:0:0:0:
196,148,100771,2,0,B|214:188|249:214|288:224,1,106.666666666667,2|0,0:0|0:0,0:0:0:0:
156,296,101199,2,0,B|190:313|227:318|261:312,1,106.666666666667,2|0,0:0|0:0,0:0:0:0:
344,296,101628,2,0,L|392:296,3,40,2|0|0|0,0:0|0:0|0:0|0:0,0:0:0:0:
456,296,102056,6,0,L|472:332,2,26.6666666666667,6|0|0,0:0|0:0|0:0,0:0:0:0:
468,228,102342,2,0,B|472:206|467:185|456:168,1,53.3333333333333,0|2,0:0|0:0,0:0:0:0:
412,124,102628,2,0,B|399:107|380:98|360:96,1,53.3333333333333,,,0:0:0:0:
300,76,102914,1,2,0:0:0:0:
200,224,103199,1,0,0:0:0:0:
368,192,103485,1,0,0:0:0:0:
208,140,103771,6,0,B|169:123|127:131|96:156,1,106.666666666667,2|0,0:0|0:0,0:0:0:0:
48,280,104199,2,0,B|80:300|118:301|150:288,1,106.666666666667,2|0,0:0|0:0,0:0:0:0:
303,233,104628,2,0,B|271:212|232:210|200:224,1,106.666666666667,2|0,0:0|0:0,0:0:0:0:
256,336,105056,2,0,L|312:336,3,40,2|0|0|0,0:0|0:0|0:0|0:0,0:0:0:0:
372,336,105485,6,0,L|408:336,2,26.6666666666667,6|0|0,0:0|0:0|0:0,0:0:0:0:
356,248,105771,2,0,B|338:237|318:232|299:232,1,53.3333333333333,0|2,0:0|0:0,0:0:0:0:
220,248,106056,2,0,B|193:251|171:265|156:284,1,53.3333333333333,,,0:0:0:0:
128,340,106342,1,2,0:0:0:0:
192,176,106628,1,0,0:0:0:0:
64,48,106914,2,0,B|45:77|40:112,1,53.3333333333333,0|0,0:0|0:0,0:0:0:0:
24,192,107199,6,0,B|55:217|98:212|124:185,1,106.666666666667,2|0,0:0|0:0,0:0:0:0:
260,248,107628,2,0,B|265:209|240:174|204:165,1,106.666666666667,2|0,0:0|0:0,0:0:0:0:
196,12,108056,2,0,B|159:26|141:66|152:101,1,106.666666666667,2|0,0:0|0:0,0:0:0:0:
184,216,108485,2,0,L|176:260,3,40,2|0|0|0,0:0|0:0|0:0|0:0,0:0:0:0:
164,336,108914,6,0,L|124:336,2,26.6666666666667,6|0|0,0:0|0:0|0:0,0:0:0:0:
256,332,109199,2,0,B|285:335|312:328,1,53.3333333333333,0|2,0:0|0:0,0:0:0:0:
336,248,109485,2,0,B|347:223|365:204,1,53.3333333333333,,,0:0:0:0:
412,136,109771,1,2,0:0:0:0:
256,244,110056,1,0,0:0:0:0:
272,60,110342,2,0,B|260:84|242:103,1,53.3333333333333,0|0,0:0|0:0,0:0:0:0:
164,144,110628,1,2,0:0:0:0:
256,192,110699,12,4,112342,0:0:0:0:
64,80,126056,5,4,0:0:0:0:
64,80,126271,1,0,0:0:0:0:
72,220,126485,2,0,L|68:156,1,60.0000022888184,2|2,0:0|0:0,0:0:0:0:
140,124,126914,5,0,0:0:0:0:
140,124,127128,1,0,0:0:0:0:
144,204,127342,2,0,L|148:264,1,60.0000022888184,2|2,0:0|0:0,0:0:0:0:
224,224,127771,5,0,0:0:0:0:
224,224,127985,1,0,0:0:0:0:
216,84,128199,2,0,L|220:148,1,60.0000022888184,2|2,0:0|0:0,0:0:0:0:
292,116,128628,2,0,B|318:81|367:77|400:104,1,120.000004577637,2|2,0:0|0:0,0:0:0:0:
398,103,129271,1,2,0:0:0:0:
372,240,129485,5,0,0:0:0:0:
372,240,129699,1,0,0:0:0:0:
444,272,129914,2,0,B|465:282|488:283|508:276,1,60.0000022888184,2|2,0:0|0:0,0:0:0:0:
436,194,130342,5,0,0:0:0:0:
436,194,130556,1,0,0:0:0:0:
372,240,130771,2,0,B|353:253|340:272|336:293,1,60.0000022888184,2|2,0:0|0:0,0:0:0:0:
444,270,131199,5,0,0:0:0:0:
444,270,131414,1,0,0:0:0:0:
436,194,131628,2,0,B|434:171|423:150|407:136,1,60.0000022888184,2|2,0:0|0:0,0:0:0:0:
340,108,132056,2,0,B|311:86|270:93|248:120,1,90.0000034332277,2|0,0:0|0:0,0:0:0:0:
236,144,132485,2,0,L|176:160,1,60.0000022888184,2|2,0:0|0:0,0:0:0:0:
76,208,132914,5,4,0:0:0:0:
76,208,133128,1,0,0:0:0:0:
56,348,133342,2,0,B|54:315|60:284,1,60.0000022888184,2|2,0:0|0:0,0:0:0:0:
76,208,133771,5,0,0:0:0:0:
76,208,133985,1,0,0:0:0:0:
140,256,134199,2,0,B|169:271|193:291,1,60.0000022888184,2|2,0:0|0:0,0:0:0:0:
76,208,134628,5,0,0:0:0:0:
76,208,134842,1,0,0:0:0:0:
204,144,135056,2,0,B|177:162|146:172,1,60.0000022888184,2|2,0:0|0:0,0:0:0:0:
76,208,135485,6,0,B|116:187|163:197|191:227,1,120.000004577637,2|2,0:0|0:0,0:0:0:0:
187,223,136128,1,2,0:0:0:0:
344,188,136342,5,0,0:0:0:0:
272,220,136556,1,0,0:0:0:0:
224,160,136771,2,0,L|256:104,1,60.0000022888184,2|2,0:0|0:0,0:0:0:0:
396,104,137199,5,0,0:0:0:0:
344,188,137414,1,0,0:0:0:0:
244,188,137628,2,0,L|224:128,1,60.0000022888184,2|2,0:0|0:0,0:0:0:0:
240,332,138056,5,0,0:0:0:0:
244,188,138271,1,0,0:0:0:0:
376,136,138485,2,0,L|436:204,1,80,2|2,0:0|0:0,0:0:0:0:
348,340,138914,5,4,0:0:0:0:
160,324,139128,1,0,0:0:0:0:
120,140,139342,1,0,0:0:0:0:
284,36,139556,1,0,0:0:0:0:
436,156,139771,6,0,B|446:183|446:211|440:237,1,80,4|2,0:0|0:0,0:0:0:0:
280,115,140199,2,0,B|273:87|275:60|284:35,1,80,8|2,0:0|0:0,0:0:0:0:
340,280,140628,1,0,0:0:0:0:
236,280,140842,1,2,0:0:0:0:
200,184,141056,1,10,0:0:0:0:
280,116,141271,1,2,0:0:0:0:
340,280,141485,6,0,L|288:352,1,80,0|2,0:0|0:0,0:0:0:0:
200,184,141914,2,0,L|252:112,1,80,8|2,0:0|0:0,0:0:0:0:
424,192,142342,2,0,L|296:204,1,120,2|0,0:0|0:0,0:0:0:0:
256,224,142771,2,0,L|204:228,3,40,10|0|2|0,0:0|0:0|0:0|0:0,0:0:0:0:
140,236,143199,5,4,0:0:0:0:
244,152,143414,1,2,0:0:0:0:
356,228,143628,1,8,0:0:0:0:
316,360,143842,1,2,0:0:0:0:
180,360,144056,2,0,B|140:368|100:360,1,80,2|0,0:0|0:0,0:0:0:0:
68,320,144378,1,0,0:0:0:0:
100,280,144485,2,0,B|140:272|180:280,1,80,10|2,0:0|0:0,0:0:0:0:
352,296,144914,5,0,0:0:0:0:
260,348,145128,1,2,0:0:0:0:
232,192,145342,2,0,B|264:188|294:193|321:205,1,80,8|2,0:0|0:0,0:0:0:0:
180,280,145771,2,2,B|150:267|128:243|116:216,1,80,0|2,0:0|0:0,0:0:0:0:
100,180,146092,1,0,0:0:0:0:
112,128,146199,2,0,L|108:84,3,40,10|0|2|0,0:0|0:0|0:0|0:0,0:0:0:0:
104,16,146628,5,4,0:0:0:0:
60,192,146842,1,2,0:0:0:0:
204,76,147056,1,8,0:0:0:0:
12,88,147271,1,2,0:0:0:0:
172,184,147485,2,0,B|205:207|244:216,1,80,0|2,0:0|0:0,0:0:0:0:
416,160,147914,2,0,B|383:137|344:128,1,80,10|2,0:0|0:0,0:0:0:0:
244,216,148342,5,0,0:0:0:0:
228,320,148556,1,2,0:0:0:0:
348,192,148771,1,8,0:0:0:0:
412,276,148985,1,2,0:0:0:0:
404,104,149199,2,0,B|354:90|303:95|259:113,1,120,2|0,0:0|0:0,0:0:0:0:
236,120,149628,2,0,L|180:128,3,40,10|0|2|0,0:0|0:0|0:0|0:0,0:0:0:0:
124,136,150056,5,4,0:0:0:0:
192,216,150271,1,2,0:0:0:0:
324,112,150485,1,8,0:0:0:0:
256,32,150699,1,2,0:0:0:0:
96,232,150914,2,0,B|88:272|96:312,1,80,4|2,0:0|0:0,0:0:0:0:
324,192,151342,2,0,B|332:152|324:112,1,80,8|2,0:0|0:0,0:0:0:0:
144,76,151771,5,4,0:0:0:0:
324,112,151985,1,2,0:0:0:0:
108,156,152199,1,12,0:0:0:0:
324,192,152414,1,2,0:0:0:0:
84,240,152628,1,12,0:0:0:0:
324,276,152842,6,8,L|372:280,1,40,,,0:0:0:0:
456,212,153056,2,8,L|408:208,1,40,8|8,0:0|0:0,0:0:0:0:
284,188,153271,2,8,L|332:192,1,40,,,0:0:0:0:
436,116,153485,5,4,0:0:0:0:
360,44,153699,1,2,0:0:0:0:
264,88,153914,1,8,0:0:0:0:
284,188,154128,1,2,0:0:0:0:
360,44,154342,2,0,B|319:38|280:40,1,80,0|2,0:0|0:0,0:0:0:0:
112,228,154771,2,0,B|153:234|192:232,1,80,10|2,0:0|0:0,0:0:0:0:
284,188,155199,5,0,0:0:0:0:
264,88,155414,1,2,0:0:0:0:
160,72,155628,1,8,0:0:0:0:
112,164,155842,1,2,0:0:0:0:
192,232,156056,2,0,L|320:252,1,120,2|0,0:0|0:0,0:0:0:0:
360,260,156485,2,0,L|404:268,3,40,10|0|2|0,0:0|0:0|0:0|0:0,0:0:0:0:
472,276,156914,5,4,0:0:0:0:
436,96,157128,1,2,0:0:0:0:
360,260,157342,1,8,0:0:0:0:
512,152,157556,1,2,0:0:0:0:
340,76,157771,2,0,B|276:75|216:96,1,120,2|0,0:0|0:0,0:0:0:0:
200,168,158199,1,10,0:0:0:0:
128,44,158414,1,2,0:0:0:0:
56,172,158628,6,0,B|52:215|64:256,1,80,0|2,0:0|0:0,0:0:0:0:
200,340,159056,2,0,B|210:300|206:260,1,80,8|2,0:0|0:0,0:0:0:0:
124,156,159485,2,0,L|204:172,1,80,0|2,0:0|0:0,0:0:0:0:
252,180,159806,1,0,0:0:0:0:
300,160,159914,2,0,L|328:112,3,40,10|0|2|0,0:0|0:0|0:0|0:0,0:0:0:0:
332,52,160342,5,4,0:0:0:0:
192,44,160556,1,2,0:0:0:0:
300,160,160771,2,0,B|342:167|384:164,1,80,8|2,0:0|0:0,0:0:0:0:
192,44,161199,5,0,0:0:0:0:
72,120,161414,1,2,0:0:0:0:
108,260,161628,2,0,B|148:271|188:272,1,80,10|2,0:0|0:0,0:0:0:0:
388,220,162056,5,0,0:0:0:0:
300,160,162271,1,2,0:0:0:0:
352,316,162485,1,8,0:0:0:0:
248,316,162699,1,2,0:0:0:0:
388,220,162914,2,0,B|327:210|268:224,1,120,2|0,0:0|0:0,0:0:0:0:
224,240,163342,2,0,L|188:268,3,40,10|0|2|0,0:0|0:0|0:0|0:0,0:0:0:0:
152,336,163771,5,4,0:0:0:0:
268,224,163985,1,2,0:0:0:0:
152,112,164199,2,0,B|123:119|98:134|79:153,1,80,8|2,0:0|0:0,0:0:0:0:
256,324,164628,5,4,0:0:0:0:
364,160,164842,1,2,0:0:0:0:
192,44,165056,2,0,B|152:36|112:44,1,80,8|2,0:0|0:0,0:0:0:0:
348,80,165485,5,4,0:0:0:0:
152,112,165699,1,2,0:0:0:0:
364,160,165914,1,12,0:0:0:0:
136,192,166128,1,2,0:0:0:0:
388,244,166342,1,12,0:0:0:0:
104,272,166556,6,8,L|152:276,1,40,,,0:0:0:0:
364,160,166771,2,8,L|316:168,1,40,,,0:0:0:0:
112,108,166985,2,8,L|156:112,1,40,,,0:0:0:0:
400,84,167199,6,0,B|346:61|289:63|240:84,1,160,6|8,0:0|0:0,0:0:0:0:
152,112,167842,2,0,L|148:156,1,40,2|2,0:0|0:0,0:0:0:0:
144,200,168056,2,0,B|99:214|53:185|44:140,1,120,2|0,0:0|0:0,0:0:0:0:
40,104,168485,2,0,L|120:108,1,80,10|0,0:0|0:0,0:0:0:0:
244,144,168914,6,0,B|284:127|327:128|364:144,1,120,2|0,0:0|0:0,0:0:0:0:
400,168,169342,2,0,L|428:244,1,80,8|0,0:0|0:0,0:0:0:0:
352,340,169771,6,0,B|312:323|269:324|232:340,1,120,2|2,0:0|0:0,0:0:0:0:
192,356,170199,2,0,L|164:280,1,80,8|2,0:0|0:0,0:0:0:0:
72,176,170628,5,2,0:0:0:0:
72,176,170735,1,2,0:0:0:0:
72,176,170842,2,0,L|72:256,1,80,2|8,0:0|0:0,0:0:0:0:
160,136,171271,1,2,0:0:0:0:
160,136,171378,1,2,0:0:0:0:
160,136,171485,2,0,L|248:240,2,120,2|2|2,0:0|0:0|0:0,0:0:0:0:
220,60,172342,5,2,0:0:0:0:
276,136,172556,1,0,0:0:0:0:
276,136,172664,1,0,0:0:0:0:
276,136,172771,2,0,B|284:183|276:228,1,80,8|0,0:0|0:0,0:0:0:0:
312,304,173199,1,2,0:0:0:0:
359,301,173306,1,2,0:0:0:0:
402,279,173414,1,2,0:0:0:0:
436,245,173521,1,2,0:0:0:0:
449,199,173628,2,0,B|441:152|449:107,1,80,10|0,0:0|0:0,0:0:0:0:
360,48,174056,6,0,B|338:101|281:127|229:112,1,160,6|8,0:0|0:0,0:0:0:0:
136,80,174699,1,2,0:0:0:0:
136,80,174806,1,2,0:0:0:0:
136,80,174914,2,0,B|93:85|61:119|56:159,1,120,2|0,0:0|0:0,0:0:0:0:
48,204,175342,2,0,L|48:284,1,80,10|0,0:0|0:0,0:0:0:0:
168,336,175771,6,0,B|192:284|188:227|164:180,1,160,2|8,0:0|0:0,0:0:0:0:
240,68,176414,1,0,0:0:0:0:
240,68,176521,1,0,0:0:0:0:
240,68,176628,2,0,B|279:85|321:83|356:68,2,120,2|2|2,0:0|0:0|0:0,0:0:0:0:
284,192,177485,5,2,0:0:0:0:
284,192,177592,1,2,0:0:0:0:
284,192,177699,2,0,L|368:200,1,80,2|8,0:0|0:0,0:0:0:0:
184,304,178128,1,2,0:0:0:0:
184,304,178235,1,2,0:0:0:0:
184,304,178342,2,0,L|316:300,1,120,2|2,0:0|0:0,0:0:0:0:
352,308,178771,2,0,L|352:224,1,80,8|2,0:0|0:0,0:0:0:0:
384,112,179199,5,14,0:0:0:0:
353,75,179306,1,2,0:0:0:0:
308,55,179414,1,2,0:0:0:0:
260,55,179521,1,2,0:0:0:0:
214,71,179628,1,14,0:0:0:0:
288,128,179842,1,10,0:0:0:0:
132,232,180056,1,14,0:0:0:0:
380,232,180271,1,14,0:0:0:0:
256,192,180485,1,14,0:0:0:0:
